Richie Rich (1996– ) | Episode n° 4 | Season 3 Episode 12 The Wild Hunt (1)Film Premieren 2012 | Peace Maker Kurogane | Amoureux de Ma Femme 2018 FRENCH

Death Wish (2018) x 1600 (2160p) HDR 5 1 x265 10bit Phun Psyz torrent download

seeders: 788
leechers: 314
updated:
Added ago by PhunPsyz ***** in Movies
Torrent Downloaded 10 times.
Info Hash: A05F1C11729A5472FAD941A78E82320C7FCA4711


Torrent Files

Death Wish (2018) x 1600 (2160p) HDR 5 1 x265 10bit Phun Psyz (Size: 3.3 GB)
  Death Wish (2018) x 1600 (2160p) HDR 5 1 x265 10bit Phun Psyz 3.3 GB

Torrent Description



www.imdb.com/title/tt1137450/

Dr. Paul Kersey is an experienced trauma surgeon, a man who has spent his life saving lives. After an attack on his family, Paul embarks on his own mission for justice.

Source: GASMASK (HDR) (18.1 GiB)



Format : Matroska
Format version : Version 4 / Version 2
File size : 3.27 GiB
Duration : 1 h 46 min
Overall bit rate : 4 389 kb/s

Video
ID : 1
Format : HEVC
Format/Info : High Efficiency Video Coding
Format profile : Main [email protected]@High
Codec ID : V_MPEGH/ISO/HEVC
Duration : 1 h 46 min
Bit rate : 3 982 kb/s
Width : 3 840 pixels
Height : 1 600 pixels
Display aspect ratio : 2.40:1
Frame rate mode : Constant
Frame rate : 23.976 (24000/1001) FPS
Color space : YUV
Chroma subsampling : 4:2:0
Bit depth : 10 bits
Bits/(Pixel*Frame) : 0.027
Stream size : 2.97 GiB (91%)
Writing library : x265 2.6:[Windows][GCC 7.1.0][64 bit] 10bit

Audio
ID : 2
Format : AC-3
Format/Info : Audio Coding 3
Format settings, Endianness : Big
Codec ID : A_AC3
Duration : 1 h 46 min
Bit rate mode : Constant
Bit rate : 320 kb/s
Channel(s) : 6 channels
Channel positions : Front: L C R, Side: L R, LFE
Sampling rate : 48.0 kHz
Frame rate : 31.250 FPS (1536 SPF)
Bit depth : 16 bits
Compression mode : Lossy
Stream size : 244 MiB (7%)
Title : Surround
Language : English

Text
Language : English
Language : English
Language : French
Language : French
Default : No
Forced : No



Related Torrents

torrent name size age seed leech
902.7 MB 2 minutes 137 370
1.7 GB 2 minutes 72 155
3.6 MB 2 minutes 331 393
706.0 MB 2 minutes 742 432
1.4 GB 2 minutes 528 11

Sharing Widget


Download torrent
3.3 GB
seeders:1214
leechers:386
Death Wish (2018) x 1600 (2160p) HDR 5 1 x265 10bit Phun Psyz



To share this torrent use the code below and insert it into comments, status messages, forum posts or your signature.

Torrent: Death Wish (2018) x 1600 (2160p) HDR 5 1 x265 10bit Phun Psyz

Comments

Latest Searches